#TITLE:Anisakis;
#SUBTITLE:SDO China lv25 - [N]hok[Q] Simfile;
#ARTIST:Suzaku;
#TITLETRANSLIT:;
#SUBTITLETRANSLIT:;
#ARTISTTRANSLIT:;
#CREDIT:[N]hok[Q];
#BANNER:bn.png;
#BACKGROUND:bg.png;
#LYRICSPATH:;
#CDTITLE:cd.png;
#MUSIC:Anisakis.mp3;
#OFFSET:-0.045;
#SAMPLESTART:89.558;
#SAMPLELENGTH:14.270;
#SELECTABLE:YES;
#DISPLAYBPM:185.000:393.000;
#BPMS:0.000=185.042,3.000=370.037,5.000=92.500,10.000=92.497,11.000=92.500,18.000=92.497,19.000=92.500,25.000=184.995,26.000=185.007,27.000=184.995,29.000=185.007,30.000=184.995,31.000=185.007,32.000=184.995,33.000=185.007,34.000=184.995,36.000=185.007,37.000=184.995,38.000=185.007,39.000=184.995,40.000=185.007,41.000=184.995,42.000=185.007,43.000=184.995,45.000=185.007,46.000=184.995,47.000=185.007,48.000=184.995,50.000=185.007,51.000=184.995,52.000=185.007,53.000=184.995,55.000=185.007,56.000=184.995,58.000=185.007,59.000=184.995,60.000=185.007,61.000=184.995,63.000=185.007,64.000=184.995,66.000=185.007,67.000=184.995,68.000=185.007,69.000=184.995,71.000=185.007,72.000=184.995,74.000=185.007,75.000=184.995,76.000=185.007,77.000=184.995,79.000=185.007,80.000=184.995,82.000=185.007,83.000=184.995,84.000=185.007,85.000=184.995,87.000=185.007,88.000=184.995,90.000=185.007,91.000=184.995,92.000=185.007,93.000=184.995,95.000=185.007,96.000=184.995,98.000=185.007,99.000=184.995,100.000=185.007,101.000=184.995,103.000=185.007,104.000=184.995,106.000=185.007,107.000=184.995,108.000=185.007,109.000=184.995,111.000=185.007,112.000=184.995,114.000=185.007,115.000=184.995,116.000=185.007,117.000=184.995,118.000=185.007,119.000=184.995,120.000=185.007,121.000=184.995,122.000=185.007,123.000=184.995,124.000=185.007,125.000=184.995,126.000=185.007,127.000=184.995,128.000=185.007,129.000=184.995,130.000=185.007,131.000=184.995,132.000=185.007,133.000=184.995,134.000=185.007,135.000=184.995,136.000=185.007,137.000=184.995,138.000=185.007,139.000=184.995,140.000=185.007,141.000=184.995,142.000=185.007,143.000=184.995,144.000=185.007,145.000=184.995,146.000=185.007,147.000=184.995,148.000=185.007,149.000=184.995,150.000=185.007,151.000=184.995,152.000=185.007,153.000=184.995,154.000=185.007,155.000=184.995,156.000=185.007,157.000=184.995,158.000=185.007,159.000=92.500,168.000=92.497,169.000=92.500,175.000=92.497,176.000=92.500,179.000=92.503,179.500=174.673,180.000=393.228,181.000=92.500,182.000=95.301,182.500=181.315,183.000=356.303,184.000=92.497,185.000=95.169,185.500=175.182,186.000=369.990,187.000=92.500,188.000=95.981,188.500=172.496,189.000=369.990,190.000=92.500,191.000=95.169,191.500=175.182,192.000=369.990,193.000=92.500,195.000=92.497,195.500=61.941,195.750=182.556,196.000=185.007,197.000=184.995,198.000=185.007,199.000=184.995,200.000=185.007,201.000=184.995,202.000=185.007,203.000=184.995,205.000=185.007,206.000=184.995,207.000=185.007,208.000=184.995,209.000=185.007,210.000=184.995,212.000=185.007,213.000=184.995,214.000=185.042,214.000=185.042,214.833=185.042,214.833=185.042,215.667=185.042,215.667=185.042,216.500=185.090,217.375=184.995,218.375=185.007,219.375=184.995,220.375=185.007,221.375=184.995,223.375=185.007,224.375=184.995,225.375=92.500,227.375=185.007,228.375=184.995,230.375=185.007,231.375=184.995,232.375=185.007,233.375=184.995,235.375=185.007,236.375=184.995,237.375=185.007,238.375=184.995,239.375=185.007,240.375=184.995,241.375=185.007,242.375=184.995,244.375=185.007,245.375=184.995,246.375=185.007,247.375=184.995,248.375=185.007,249.375=184.995,251.375=185.007,252.375=184.995,253.375=185.007,254.375=184.995,255.375=185.007,256.375=184.995,258.375=185.007,259.375=184.995,260.375=185.007,261.375=184.995,262.375=185.007,263.375=184.995,265.375=185.007,266.375=184.995,267.375=185.007,268.375=184.995,269.375=185.007,270.375=184.995,272.375=185.007,273.375=184.995,274.375=185.007,275.375=184.995,276.375=185.007,277.375=184.995,279.375=185.007,280.375=184.995,281.375=185.007,282.375=184.995,283.375=185.007,285.375=184.995,286.375=185.007,287.375=184.995,288.375=185.007,289.375=184.995,290.375=185.007,291.375=92.500,296.375=92.497,297.375=92.500,303.375=92.497,304.375=92.500,307.375=185.007,308.375=184.995,309.375=185.007,310.375=184.995,312.375=185.007,313.375=184.995,314.375=185.007,315.375=184.995,316.375=185.007,317.375=184.995,319.375=185.007,320.375=184.995,321.375=185.007,322.375=184.995,323.375=185.007,324.375=184.995,326.375=185.007,327.375=184.995,328.375=185.007,329.375=184.995,330.375=185.007,331.375=184.995,332.375=185.007,333.375=184.995,334.375=185.007,335.375=184.995,336.375=185.007,337.375=184.995,338.375=185.007,339.375=95.668,339.625=304.569,340.000=311.239,340.375=198.033,341.375=184.995,342.500=185.008,343.375=184.995,344.500=185.008,345.375=184.995,346.500=185.008,347.375=184.995,348.500=185.008,349.375=184.995,350.500=185.008,351.375=184.995,352.500=185.008,353.375=184.995,354.500=185.008,355.375=184.995,356.500=185.008;
#STOPS:214.000=0.054
,214.833=0.054
,215.667=0.054
,216.500=0.041
;
#BGCHANGES:;
// cache tags:
#FIRSTBEAT:5.000;
#LASTBEAT:340.375;
#SONGFILENAME:Songs/SDO pack 4/Anisakis/Anisakis.sm;
#HASMUSIC:1;
#HASBANNER:1;
#MUSICLENGTH:137.088;
// end cache tags

//---------------dance-single - ----------------
#NOTES:
     dance-single:
     :
     Hard:
     25:
     1.000,1.000,1.000,0.605,1.000,876.000,278.000,83.000,0.000,69.000:
0000
0000
0000
0000
,
0000
0000
0012
0100
1000
0100
1023
0001
,
0100
1000
1230
0001
0010
0001
2300
0001
,
3021
0100
2130
0001
0010
0100
3021
0001
,
1000
0001
0231
1000
0001
0010
0301
0010
,
0100
1000
1221
0000
0000
0000
2000
0000
,
0000
0000
0000
0000
3330
0000
0011
0000
0000
1000
0000
0000
0110
0000
0000
0001
0000
0000
0110
0000
0000
1000
0000
0000
,
0101
0010
1001
0000
1100
0010
1001
0010
,
0101
1000
0110
1000
0011
0100
0011
1000
,
0101
0010
1001
0000
1100
0010
1001
0010
,
1101
0000
0010
0000
1100
0000
0001
0000
1000
0000
0001
0000
1000
0100
0001
0000
,
1000
0000
0001
0000
1000
0001
0010
0000
1000
0000
0010
0000
1000
0001
0010
0000
,
1000
0000
0010
0000
1000
0001
0100
0000
1000
0000
0100
0000
1000
0001
0100
0000
,
1000
1100
1000
1011
0000
0010
1000
0010
,
1000
1010
1100
1001
0110
1001
0110
1010
,
0101
0000
1010
0000
0201
0000
0000
0000
1310
0000
0001
0000
1100
0010
0001
0000
,
0110
0001
1010
1100
0101
1010
0101
1010
,
1101
0000
1010
0000
0102
0000
1000
0000
1103
0000
0010
0000
0101
1000
0010
0000
,
1100
1001
0110
1001
0110
0101
1010
1001
,
0101
0000
1010
0000
2101
0000
0010
0000
3101
0000
1010
0000
0101
1000
0110
0000
,
1011
1010
0110
1010
0101
1010
0101
1010
,
0110
0000
1001
0000
0110
1000
0110
1000
0001
0100
0001
0100
0010
1000
0010
1000
,
0001
0100
1010
0100
1001
0100
0010
0001
0110
0000
1000
0100
1010
0001
0010
0000
,
1001
0100
0010
0001
0110
0000
1000
0100
1010
0001
0010
0000
1001
0100
0010
0001
,
1010
0100
1000
0100
1001
0100
0010
0001
1010
0000
1000
0100
1010
0001
0010
0000
,
1001
0100
0010
0001
0110
1000
0100
1000
0011
1000
0001
1000
0110
1000
0100
1000
,
0011
0100
1000
0100
1001
0100
0010
0001
0110
0000
1000
0100
1010
0001
0010
0000
,
1001
0100
0010
0001
1010
0000
1000
0100
1010
0001
0010
0000
1001
0100
0010
0001
,
1010
0100
1000
0100
1001
0100
0010
0001
0110
0000
1000
0100
1010
0001
0010
0000
,
1001
0100
0010
0001
0110
1000
0010
0100
1001
0010
0100
1000
0011
0100
0010
1000
,
0011
0100
0010
1000
0001
0010
0100
0001
1010
0000
0001
1000
0110
0001
1010
0000
,
0101
1000
0010
0100
1002
0010
0100
1000
0010
0100
0010
1000
0103
0010
0100
1000
,
0010
0100
1000
0100
0011
0100
1000
0010
1100
0000
0010
1000
0101
0010
1000
0000
,
0101
1000
0010
0100
1002
0100
0010
0100
1010
0100
0013
1000
0212
1000
0010
1000
,
0010
1000
0313
1000
0011
0100
0010
0100
1001
0000
0010
1000
0101
0010
1000
0000
,
0101
1000
0010
0100
1001
0000
0010
1000
0101
0010
1000
0000
1001
0100
0010
1000
,
0101
0010
1000
0010
0001
0010
0100
0001
1010
0000
0001
0100
0011
0100
1000
0000
,
1010
0001
0100
0010
2001
0100
0001
0100
3021
1000
0001
0100
2032
0000
3020
0000
,
2233
3002
2323
0000
0000
0000
0000
0000
,
0000
0000
0000
0000
,
0000
0000
0000
0000
0000
0000
0000
0000
0000
0000
3030
0000
,
0100
1000
0100
0010
0100
0000
0002
0000
0013
0000
0000
0000
0000
0000
0000
0000
,
0100
0000
1000
0000
0100
0000
0010
0000
0100
0000
0000
0000
0002
0000
0000
0000
0013
0000
0000
0000
0100
0000
0000
0000
2000
0000
0000
0000
0000
0000
0000
3000
,
0100
1000
0100
0010
0100
0000
0002
0000
0013
0000
0000
0000
0000
0000
0000
0000
,
2000
0000
3010
0000
0100
0000
0002
0000
0013
1000
0001
0010
0100
0000
0222
0000
,
0000
0000
0000
0000
1333
0000
0010
0000
0100
1000
0222
0000
0000
0000
0000
0000
,
1333
0000
0010
0000
0100
1000
0222
0000
0000
0000
0000
0000
1333
0000
0010
0000
,
0100
1000
0222
0000
0000
0000
0000
0000
1333
0000
0010
0000
0100
1000
0222
0000
,
0000
0000
0000
0000
0000
0000
0000
0000
0000
0000
0000
0000
1333
0000
0000
0000
1000
0000
1010
0000
0000
0000
0001
0000
0101
0000
0000
0000
0010
0000
0011
0000
0000
0000
0100
0000
1100
0000
0000
0000
0001
0000
0011
0000
0000
1000
0000
0000
,
1100
0000
0010
0000
0011
0000
0100
0000
1100
0000
0011
0100
0000
0000
1100
0010
,
0000
0000
0000
0000
0000
0000
1100
0000
0000
0001
0000
0000
0000
0000
0000
0000
0000
0000
1100
0000
0000
0000
0000
0000
1010
0000
0000
0000
0001
0000
0000
0000
0100
0000
0000
0000
0010
0000
0000
0000
1000
0000
0000
0000
0100
0000
0000
0000
,
1000
0001
1000
0010
1000
0100
2012
0000
0000
0100
0000
0000
,
0010
0100
0010
0100
,
0010
0000
0000
0000
0000
0000
3103
0000
0000
0000
0000
0000
1110
0000
0000
0000
0000
0111
0000
0000
0000
0000
1110
0000
,
0000
0000
0000
0000
0000
0000
0000
0000
0000
0000
0000
0000
0111
0000
0000
0000
0000
0000
0000
0000
0000
0000
0000
0000
0000
0000
0000
0000
0000
0000
0000
0000
0000
1010
0000
0000
0000
0000
0000
0000
0000
1010
0000
0000
0000
0000
0000
0000
0000
1010
0000
0000
0000
0000
0000
0000
0000
0101
0000
0000
0000
0000
0000
0000
0000
0101
0000
0000
0000
0000
0000
0000
0000
0101
0000
0000
0000
0000
0000
0000
0000
0020
0000
0000
0000
0000
0000
0000
0000
0000
0000
0000
0000
0000
0000
0000
,
0000
1031
0000
0000
0000
0000
0000
0000
0000
1001
0000
0000
0000
0000
0000
0000
0000
0110
0000
0000
0000
0000
0000
0000
0000
0110
0000
0000
0000
0000
0000
0000
0000
2002
0000
0000
0000
0000
0000
0000
0000
0000
0000
0000
0000
0000
0000
0000
0000
0000
0000
0000
0000
0000
0000
0000
0000
0000
0000
0000
0000
0000
0000
0000
0000
0000
0000
0000
0000
0000
0000
0000
0000
0000
0000
0000
0000
0000
0000
0000
0000
0000
0000
0000
0000
0000
0000
0000
0000
0000
0000
0000
0000
0000
0000
0000
,
0000
0000
0000
0000
0000
0000
0000
3003
0000
0000
0000
0001
0010
0100
1000
0100
0010
0001
0010
0100
1000
0100
0010
0001
0100
0010
1000
0101
0000
0000
0000
0100
,
0000
1000
0000
0011
0000
0000
0000
0010
0000
0000
0000
0101
0000
1000
0000
0001
0000
0000
0000
0110
0000
0000
0000
1000
0000
0000
0000
0011
0000
0000
0000
0100
,
0000
1000
0000
0110
0000
0000
0000
0001
0000
0100
0000
1001
0000
0100
0000
0010
0000
0001
0000
1100
0000
0010
0000
0001
0000
0010
0000
0101
0000
0000
0000
1000
,
0000
0100
0000
0011
0000
0000
0000
0100
0000
0000
0000
1001
0000
0100
0000
0010
0000
0000
0000
0101
0000
0000
0000
1000
0000
0100
0000
0011
0000
0000
0000
0001
,
0000
1000
0000
0110
0000
0000
0000
0001
0000
0100
0000
1010
0000
0100
0000
0010
0000
0001
0000
0110
0000
1000
0000
0001
0000
0100
0000
0011
0000
0000
0000
1000
,
0000
0000
0000
0101
0000
0000
0000
0010
0000
0000
0000
1001
0000
0000
0000
0100
0000
0000
0000
0011
0000
0000
0000
1000
0000
0000
0000
0101
0000
0000
0000
1000
,
0000
0000
0000
0101
0000
0000
0000
0010
0000
0000
0000
1001
0000
0000
0000
0100
0000
0000
0000
0011
0000
0000
0000
1000
0000
0000
0000
1001
0000
0000
0000
0010
,
0000
0100
0000
0011
0000
0000
0000
0100
0000
1000
0000
0110
0000
0000
0000
0001
0000
0100
0000
1001
0000
0000
0000
0010
0000
0100
0000
1001
0000
0010
0000
0100
,
0000
0001
0000
1010
0000
0100
0000
0001
0000
0010
0000
1001
0000
0100
0000
0010
0000
1000
0000
0110
0000
0001
0000
1000
0000
0100
0000
1010
0000
0000
0000
0100
,
0000
0010
0000
1001
0000
0000
0000
0010
0000
0000
0000
1100
0000
0010
0000
0001
0000
0000
0000
1010
0000
0000
0000
0100
0000
0010
0000
1001
0000
0000
0000
0010
,
0000
0100
0000
1010
0000
0000
0000
0001
0000
0100
0000
1001
0000
0100
0000
0001
0000
0010
0000
1100
0000
0010
0000
0001
0000
1000
0000
0110
0000
0000
0000
1000
,
0000
0010
0000
0101
0000
0000
0000
0010
0000
0000
0000
1100
0000
0010
0000
0001
0000
1000
0000
0110
0000
0000
0000
1000
0000
0010
0000
0101
0000
0000
0000
0001
,
0000
0100
0000
1010
0000
0000
0000
0001
0000
1000
0000
0101
0000
0010
0000
0001
0000
0100
0000
1010
0000
0001
0000
1000
0000
0010
0000
0100
0000
0001
0000
1000
,
0000
0001
0000
0100
0000
0001
0000
0010
0000
0100
0000
0001
0000
0010
0000
1000
0000
0010
0000
0100
0000
1000
0000
0010
0000
1000
0000
0001
0000
1000
0000
0100
,
0000
1000
0000
0010
0000
0001
0000
1000
0000
0010
0000
0001
0000
0100
0000
1000
0000
0010
0000
0100
0000
1000
0000
0010
0000
0100
0000
1001
0000
0000
0000
0010
,
0000
0100
0000
0001
0000
0000
0000
0100
0000
1000
0000
0010
0000
0000
0000
0001
0000
1000
0000
0010
0000
0000
0000
0100
0000
1000
0000
0001
0000
0100
0000
0001
,
0000
0100
0000
0010
0000
1000
0000
0010
0000
1000
0000
0100
0000
1000
0000
0100
0000
1000
0000
0010
0000
0100
0000
1000
0000
0010
0000
0101
0000
0000
0000
0010
,
0000
0000
0000
1000
0000
0000
0000
0100
0000
0000
0000
0011
0000
0000
0000
0100
0000
0000
0000
0001
0000
0000
0000
1010
0000
0000
0000
1101
0000
0000
0000
0010
,
0000
0000
0000
0100
0000
0000
0000
0010
0000
0000
0000
1001
0000
0000
0000
0100
0000
0000
0000
1010
0000
0000
0000
1001
0000
0000
0000
1100
0000
0000
0000
0010
,
0000
0000
0000
0001
0000
0000
0000
1100
0000
0000
0000
1011
0000
0000
0000
0100
0000
0000
0000
0001
0000
0000
0000
1100
0000
0000
0000
1010
0000
0000
0000
0000
,
0000
0000
0000
0100
0000
0000
0000
0010
0000
0000
0000
1001
0010
1100
0010
0001
0010
0100
0010
1001
0010
1001
0010
1001
0010
1001
0010
1001
0000
0010
0000
0100
,
0000
0001
0000
1020
0000
0000
0000
0031
0000
0010
0000
1100
0000
0010
0000
0002
0000
0000
0000
1013
0000
0100
0000
0002
0000
0000
0000
1013
0000
0100
0000
0001
,
0000
0100
0000
1020
0000
0000
0000
0031
0000
0100
0000
1010
0000
0100
0000
0002
0000
0000
0000
1013
0000
0100
0000
0001
0000
0010
0000
1100
0000
0010
0000
0001
,
0000
0100
0000
1001
0000
0000
0000
0010
0000
0000
0000
1100
0000
0001
0000
1010
0000
0000
0000
1101
0000
0000
0000
1010
0000
0010
0000
1001
0000
0000
0000
1010
,
0000
0100
0000
0011
0000
0000
0000
1001
0000
0100
0000
1010
0000
0100
0000
1001
0000
0100
0000
1010
0000
0100
0000
1001
0000
0010
0000
0002
0000
0000
0000
2000
,
0000
0000
0000
3203
0000
0000
0000
0320
0000
0000
0000
0032
0000
0000
0000
2020
0000
0000
0000
3233
0000
0000
0000
2320
0000
0000
0000
3032
0000
0000
0000
2000
,
0000
0000
0000
3023
0000
0000
0000
0230
0000
0000
0000
0302
0000
0000
0000
2000
0000
0000
0000
3023
0000
0000
0000
2230
0000
0000
0000
3302
0000
0000
0000
1000
,
0000
0000
0000
0100
0000
0000
0000
0000
0000
0023
0000
0000
0000
0000
0000
0000
0000
0000
0000
0000
0000
1000
0000
0000
0000
0000
0000
0001
0000
0000
0000
0000
0000
0230
0000
0000
0000
0000
0000
0000
0000
0000
0000
0000
0000
1000
0000
0000
0000
0000
0000
0010
0000
0000
0000
0000
0000
0302
0000
0000
0000
0000
0000
0000
0000
0000
0000
0000
0000
1003
0000
0000
0000
0000
0000
0100
0000
0000
0000
0000
0000
1001
0000
0000
0000
0000
0000
0000
0000
1010
0000
0000
0000
0000
0000
0000
,
0000
0101
0000
0000
0000
0000
0000
0000
0000
1010
0000
0000
0000
0000
0000
0000
0000
0101
0000
0000
0000
0000
0000
0000
0000
1010
0000
0000
0000
0000
0000
0000
0000
0101
0000
0000
0000
0000
0000
0000
0000
1010
0000
0000
0000
0000
0000
0000
0000
0101
0000
0000
0000
0000
0000
0000
0000
1010
0000
0000
0000
0000
0000
0000
0000
0101
0000
0000
0000
0000
0000
0000
0000
1010
0000
0000
0000
0000
0000
0000
0000
0200
0000
0000
0000
0000
0000
0000
0000
0000
0000
0000
0000
0000
0000
0000
,
0000
0000
0000
1311
0000
0000
0000
0000
0000
0000
0000
0000
0000
0000
0000
0000
0000
0000
0000
0000
0000
0000
0000
0000
0000
0000
0000
0000
0000
0000
0000
0000
,
0000
0000
0000
0000
,
0000
0000
0000
0000
,
0000
0000
0000
0000
,
0000
0000
0000
0000
,
0000
0000
0000
0000
,
0000
0000
0000
0000
,
0000
0000
0000
0000
,
0000
0000
0000
0000
,
0000
0000
0000
0000
,
0000
0000
0000
0000
,
0000
0000
0000
0000
;
